Sundari (by Vidya Vox) [Tamil] [2024] (Shrutibox Music)

[Hi-Res] [24-Bit 48.0 kHz] Sundari (by Vidya Vox) [Tamil] [2024] (Shrutibox Music) 2024

No permission to download
Sundari (by Vidya Vox) [Tamil] [2024] (Shrutibox Music)



Album / Movie : Sundari (by Vidya Vox) [Tamil] (Shrutibox Music)
Music / Composer : Shankar Tucker & Vidya Vox
Year Released: 2024
Label: © 2024 Shrutibox Music.
Language: Tamil
Ripper Note: Enjoy AUTHENTiC__HRQ 🔥

Tracklist :
1 - Stardust - Vidya Vox
2 - Sundari - Vidya Vox
3 - Ini Ninte Lokam (Go Off) - Vidya Vox
4 - Dangerous - Vidya Vox & Nikhita Gandhi
5 - Champagne Roses - Vidya Vox
6 - Yazhiha - Vidya Vox & Rohith Jayaraman


Spek :


Quality Check log :
Code:
foobar2000 2.1 / Dynamic Range Meter 1.1.1
log date: 2024-05-16 10:44:42

--------------------------------------------------------------------------------
Analyzed: Vidya Vox, Nikhita Gandhi / Sundari (1)
          Vidya Vox, Rohith Jayaraman / Sundari (2)
          Vidya Vox / Sundari (3-5)
--------------------------------------------------------------------------------

DR         Peak         RMS     Duration Track
--------------------------------------------------------------------------------
DR4       -0.06 dB    -4.91 dB      2:08 04-Dangerous
DR6       -0.06 dB    -7.53 dB      2:49 06-Yazhiha
DR5       -0.54 dB    -9.07 dB      3:41 01-Stardust
DR6       -0.01 dB    -7.15 dB      2:45 03-Ini Ninte Lokam (Go Off)
DR6       -0.06 dB    -8.13 dB      2:16 05-Champagne Roses
--------------------------------------------------------------------------------

Number of tracks:  5
Official DR value: DR5

Samplerate:        48000 Hz
Channels:          2
Bits per sample:   24
Bitrate:           1733 kbps
Codec:             FLAC
================================================================================

foobar2000 2.1 / Dynamic Range Meter 1.1.1
log date: 2024-05-16 10:44:40

--------------------------------------------------------------------------------
Statistics for: 02-Sundari
Number of samples: 8073500
Duration: 3:03
--------------------------------------------------------------------------------

                 Left              Right

Peak Value:     -0.04 dB   ---     -0.23 dB  
Avg RMS:        -6.59 dB   ---     -7.13 dB  
DR channel:      5.04 dB   ---      5.55 dB  
--------------------------------------------------------------------------------

Official DR Value: DR5

Samplerate:        44100 Hz
Channels:          2
Bits per sample:   16
Bitrate:           999 kbps
Codec:             FLAC
================================================================================
~ Samperals.net x Desihires.com.