Raaz - The Mystery Continues (Hindi) [2008] (Sony BMG) [1st Edition]

[Audio CD] Raaz - The Mystery Continues (Hindi) [2008] (Sony BMG) [1st Edition] 2008

No permission to download
Raaz - The Mystery Continues (Hindi) [2008] (Sony BMG) [1st Edition]



Album / Movie : Raaz - The Mystery Continues (Hindi) [2008] (Sony BMG) [1st Edition]
Music / Composer : Raju Singh, Sharib - Toshi, Pranay M. Rijia, Gourov Dasgupta
Year Released: 2008
Label: © 2008 Sony BMG.
Language: Hindi
Ripper Note: Enjoy AUTHENTiC___CDRip 🔥 Credits to the Source 🖖✌️(y)

Tracklist :
01 - Maahi - Toshi
02 - Soniyo - Sonu Nigam, Shreya Ghoshal & Neeraj Sridhar
03 - O Jaana - KK
04 - Kaisa Ye Raaz Hai - KK
05 - Bandaa Re - Krishna
06 - Soniyo (From the heart) - Krishna
07 - Maahi (Rock With Me) - Toshi
08 - O Jaana (Dance With Me Mix) - KK & DJ Suketu

Spek :


Quality Check log :
Code:
foobar2000 2.1 / Dynamic Range Meter 1.1.1
log date: 2024-05-17 16:40:13

--------------------------------------------------------------------------------
Analyzed: KK & DJ Suketu / Raaz - The Mystery Continues (1)
          KK / Raaz - The Mystery Continues (2-3)
          Krishna / Raaz - The Mystery Continues (4-5)
          Sonu Nigam, Shreya Ghoshal & Neeraj Sridhar / Raaz - The Mystery Continues (6)
          Toshi / Raaz - The Mystery Continues (7-8)
--------------------------------------------------------------------------------

DR         Peak         RMS     Duration Track
--------------------------------------------------------------------------------
DR6       -0.01 dB    -6.89 dB      3:59 08-O Jaana (Dance With Me Mix)
DR7       -0.01 dB    -8.81 dB      4:30 03-O Jaana
DR6       -0.01 dB    -8.21 dB      6:17 04-Kaisa Ye Raaz Hai
DR6       -0.01 dB    -7.87 dB      5:05 05-Bandaa Re
DR7       -0.01 dB    -8.97 dB      5:33 06-Soniyo (From the heart)
DR6       -0.01 dB    -8.09 dB      5:28 02-Soniyo
DR6       -0.01 dB    -7.71 dB      5:29 01-Maahi
DR6       -0.01 dB    -7.21 dB      4:46 07-Maahi (Rock With Me)
--------------------------------------------------------------------------------

Number of tracks:  8
Official DR value: DR6

Samplerate:        44100 Hz
Channels:          2
Bits per sample:   16
Bitrate:           1411 kbps
Codec:             PCM
================================================================================
~ Samperals.net x Desihires.com