Pekamedalu (Telugu) [2024] (Sony Music)

[Hi-Res] [24-Bit 48.0 kHz] Pekamedalu (Telugu) [2024] (Sony Music) 2024

No permission to download
Pekamedalu (Telugu) [2024] (Sony Music)



Album / Movie : Pekamedalu [2024] (Telugu) (Original Motion Picture Soundtrack) - EP
Composer : Smaran
Year Released: 2024
Label: © 2024 Sony Music.
Language: Telugu
Ripper Note: Smaran Musical 🔥 Enjoy AUTHENTiC__UNT0UCHED_HRQ 🔥

Tracklist :
1 - Boom Boom Lacchanna - Mano & Smaran
2 - Aanandham Athaki Swaahaa - Smaran & Sakae Rajashekar
3 - Sher Shiva - Smaran
4 - Varalaxmi - Sarathy & Smaran

Spek :


Quality Check log :
Code:
foobar2000 2.1 / Dynamic Range Meter 1.1.1
log date: 2024-06-22 11:06:24

--------------------------------------------------------------------------------
Analyzed: Mano & Smaran / Pekamedalu (Original Motion Picture Soundtrack) (1)
          Sarathy & Smaran / Pekamedalu (Original Motion Picture Soundtrack) (2)
          Smaran & Sakae Rajashekar / Pekamedalu (Original Motion Picture Soundtrack) (3)
          Smaran / Pekamedalu (Original Motion Picture Soundtrack) (4)
--------------------------------------------------------------------------------

DR         Peak         RMS     Duration Track
--------------------------------------------------------------------------------
DR8       -1.10 dB   -10.61 dB      3:44 01-Boom Boom Lacchanna
DR7       -0.10 dB   -10.31 dB      3:34 04-Varalaxmi
DR7        0.00 dB    -8.75 dB      5:30 02-Aanandham Athaki Swaahaa
DR6        0.00 dB    -8.35 dB      1:26 03-Sher Shiva
--------------------------------------------------------------------------------

Number of tracks:  4
Official DR value: DR7

Samplerate:        48000 Hz
Channels:          2
Bits per sample:   24
Bitrate:           1665 kbps
Codec:             FLAC
================================================================================
~ Samperals.net x Desihires.com
  • Like
  • Love
Reactions: Aerdyn and VHemanth