Oonjalaadum Uravugal (Tamil) [1982] (Kosmik)

[24-Bit 44.0 kHz] [Hi-Res] Oonjalaadum Uravugal (Tamil) [1982] (Kosmik) 1982

No permission to download
Oonjalaadum Uravugal (Tamil) [1982] (Kosmik)

600x600bb.jpg

Album / Movie : Oonjalaadum Uravugal
Music / Composer : Ilayaraaja
Year Released: 1982

Label: Kosmik
Language: Tamil

Tracklist :
1 - Veenai Enadu Kuzhanthai - P. Susheela
2 - Thazhuvum Pozhuthey Nazhuvum - S. P. Balasubrahmanyam & S.P. Sailaja
3 - Poongkodiye Kai Veesu - S. P. Balasubrahmanyam


Spek :

03. Poongkodiye Kai Veesu.flac.png

Quality Check log :
Code:
foobar2000 1.6.2 / Dynamic Range Meter 1.1.1
log date: 2021-06-29 18:41:21

--------------------------------------------------------------------------------
Analyzed: P. Susheela / Oonjalaadum Uravugal (Original Motion Picture Soundtrack) (1)
          S. P. Balasubrahmanyam & S.P. Sailaja / Oonjalaadum Uravugal (Original Motion Picture Soundtrack) (2)
          S. P. Balasubrahmanyam / Oonjalaadum Uravugal (Original Motion Picture Soundtrack) (3)
--------------------------------------------------------------------------------

DR         Peak         RMS     Duration Track
--------------------------------------------------------------------------------
DR8       -0.53 dB   -10.03 dB      4:57 01-Veenai Enadu Kuzhanthai
DR8       -0.54 dB    -9.32 dB      4:40 02-Thazhuvum Pozhuthey Nazhuvum
DR7       -0.50 dB    -9.35 dB      4:37 03-Poongkodiye Kai Veesu
--------------------------------------------------------------------------------

Number of tracks:  3
Official DR value: DR8

Samplerate:        44100 Hz
Channels:          2
Bits per sample:   24
Bitrate:           837 kbps
Codec:             FLAC
================================================================================