Ishq Vishk Rebound (Hindi) [2024] (Tips Music)

[Hi-Res] [24-Bit 96.0 kHz] Ishq Vishk Rebound (Hindi) [2024] (Tips Music) 2024

No permission to download
Ishq Vishk Rebound (Hindi) [2024] (Tips Music)



Album / Movie : Ishq Vishk Rebound [2024] (Hindi) (Original Motion Picture Soundtrack) - EP
Composer : Rochak Kohli, Badshah & Hiten
Year Released: 2024
Label: © 2024 Tips Music.
Language: Hindi
Ripper Note: Rochak Kohli, Badshah & Hiten Musical 🔥 Enjoy AUTHENTiC__UNT0UCHED_HRQ 🔥

Tracklist :
1 - Ishq Vishk Pyaar Vyaar - Sonu Nigam, Anu Malik, Sameer, Mellow D, Rochak Kohli, Nikhita Gandhi & Gurpreet Saini
2 - Soni Soni - Jonita Gandhi, Rochak Kohli, Darshan Raval & Gurpreet Saini
3 - Chot Dil Pe Lagi - Anu Malik, Sameer Anjaan, Rochak Kohli, Asees Kaur, Varun Jain & Gurpreet Saini
4 - Gore Gore Mukhde Pe - Udit Narayan, Anand-Milind, Sameer Anjaan, Hiten, Badshah & Nikhita Gandhi
5 - Rehmat - Rochak Kohli, Gautam Sharma, Jubin Nautiyal & Gurpreet Saini
6 - Jaavi Na - Kumaar, Rochak Kohli, Darshan Raval & Jasleen Royal
7 - Rehmat (Rebound) - Rekha Bhardwaj, Rochak Kohli & Gurpreet Saini
8 - Rehmat (ALT) - Rochak Kohli, Gautam Sharma & Gurpreet Saini

Spek :


Quality Check log :
Code:
foobar2000 2.1 / Dynamic Range Meter 1.1.1
log date: 2024-06-22 11:28:15

--------------------------------------------------------------------------------
Analyzed: Anu Malik, Sameer Anjaan, Rochak Kohli, Asees Kaur, Varun Jain & Gurpreet Saini / Ishq Vishk Rebound (Original Motion Picture Soundtrack) (1)
          Jonita Gandhi, Rochak Kohli, Darshan Raval & Gurpreet Saini / Ishq Vishk Rebound (Original Motion Picture Soundtrack) (2)
          Kumaar, Rochak Kohli, Darshan Raval & Jasleen Royal / Ishq Vishk Rebound (Original Motion Picture Soundtrack) (3)
          Rekha Bhardwaj, Rochak Kohli & Gurpreet Saini / Ishq Vishk Rebound (Original Motion Picture Soundtrack) (4)
          Rochak Kohli, Gautam Sharma & Gurpreet Saini / Ishq Vishk Rebound (Original Motion Picture Soundtrack) (5)
          Rochak Kohli, Gautam Sharma, Jubin Nautiyal & Gurpreet Saini / Ishq Vishk Rebound (Original Motion Picture Soundtrack) (6)
          Sonu Nigam, Anu Malik, Sameer, Mellow D, Rochak Kohli, Nikhita Gandhi & Gurpreet Saini / Ishq Vishk Rebound (Original Motion Picture Soundtrack) (7)
          Udit Narayan, Anand-Milind, Sameer Anjaan, Hiten, Badshah & Nikhita Gandhi / Ishq Vishk Rebound (Original Motion Picture Soundtrack) (8)
--------------------------------------------------------------------------------

DR         Peak         RMS     Duration Track
--------------------------------------------------------------------------------
DR7        0.00 dB    -8.60 dB      4:46 03-Chot Dil Pe Lagi
DR7        0.00 dB    -8.65 dB      2:57 02-Soni Soni
DR10       0.00 dB   -12.56 dB      4:21 06-Jaavi Na
DR7        0.00 dB    -8.58 dB      2:57 07-Rehmat (Rebound)
DR6        0.00 dB    -8.03 dB      2:46 08-Rehmat (ALT)
DR7        0.00 dB    -9.39 dB      3:00 05-Rehmat
DR5        0.00 dB    -6.86 dB      3:22 01-Ishq Vishk Pyaar Vyaar
DR4       -0.30 dB    -5.37 dB      2:26 04-Gore Gore Mukhde Pe
--------------------------------------------------------------------------------

Number of tracks:  8
Official DR value: DR7

Samplerate:        96000 Hz
Channels:          2
Bits per sample:   24
Bitrate:           2813 kbps
Codec:             FLAC
================================================================================
~ Samperals.net x Desihires.com