Inga Naan Thaan Kingu (Tamil) [2024] (SaReGaMa)

[CD Quality] [FLAC] Inga Naan Thaan Kingu (Tamil) [2024] (SaReGaMa) 2024

No permission to download
Inga Naan Thaan Kingu (Tamil) [2024] (SaReGaMa)



Album / Movie : Inga Naan Thaan Kingu (Tamil) [2024] (SaReGaMa)
Music / Composer : D. Imman
Year Released: 2024
Label: © 2024 SaReGaMa.
Language: Tamil
Ripper Note: D. Imman Musical 🔥 Enjoy UNT0UCHED__CDQ 🔥

Tracklist :
01 - Maayoney - Jonita Gandhi, Sean Roldan, Muthamil
02 - Kulukku Kulukku - Srinisha Jayaseelan, D. Imman, Vignesh Shivan
03 - Maalu Maalu - Nakash Aziz, Anthakudi Ilayaraja, Shweta Mohan, Muthamil
04 - Dance Venuma Dance Irukku - D. Imman
05 - Ikkunaana - D. Imman, Deepthi Suresh


Spek :


Quality Check log :
Code:
foobar2000 2.1 / Dynamic Range Meter 1.1.1
log date: 2024-05-25 16:48:19

--------------------------------------------------------------------------------
Analyzed: D. Imman, Deepthi Suresh / Inga Naan Thaan Kingu (Original Motion Picture Soundtrack) (1)
          D. Imman / Inga Naan Thaan Kingu (Original Motion Picture Soundtrack) (2)
          Jonita Gandhi, Sean Roldan, Muthamil / Inga Naan Thaan Kingu (Original Motion Picture Soundtrack) (3)
          Nakash Aziz, Anthakudi Ilayaraja, Shweta Mohan, Muthamil / Inga Naan Thaan Kingu (Original Motion Picture Soundtrack) (4)
          Srinisha Jayaseelan, D. Imman, Vignesh Shivan / Inga Naan Thaan Kingu (Original Motion Picture Soundtrack) (5)
--------------------------------------------------------------------------------

DR         Peak         RMS     Duration Track
--------------------------------------------------------------------------------
DR6       -0.11 dB    -7.56 dB      1:09 05-Ikkunaana
DR6       -0.24 dB    -7.19 dB      3:01 04-Dance Venuma Dance Irukku
DR5        0.00 dB    -6.91 dB      3:56 01-Maayoney
DR6       -0.14 dB    -7.78 dB      3:55 03-Maalu Maalu
DR6       -0.21 dB    -7.43 dB      3:56 02-Kulukku Kulukku
--------------------------------------------------------------------------------

Number of tracks:  5
Official DR value: DR6

Samplerate:        44100 Hz
Channels:          2
Bits per sample:   16
Bitrate:           1047 kbps
Codec:             FLAC
================================================================================
~ Samperals.net x Desihires.com.