Indian 2 (Tamil) [2024] (Sony Music)

[Hi-Res] [24-Bit 96.0 kHz] Indian 2 (Tamil) [2024] (Sony Music) 2024

No permission to download
Indian 2 (Tamil) [2024] (Sony Music)



Album / Movie : Indian 2 (Tamil) [2024] (Sony Music)
Music / Composer : Anirudh Ravichander
Year Released: 2024
Label: © 2024 Sony Music.
Language: Tamil
Ripper Note: Anirudh Ravichander x Shankar 🔥. Enjoy AUTHENTiC__UNT0UCHED_HiRES 🔥

Tracklist :
1 - Paaraa - Anirudh Ravichander & Shruthika Samudhrala
2 - Calendar Song - Suvi, Anirudh Ravichander & Aishwarya Suresh
3 - Neelorpam - Anirudh Ravichander, Abby V & Shruthika Samudhrala
4 - ZagaZaga - Anirudh Ravichander
5 - Come Back Indian - Anirudh Ravichander
6 - Kadharalz - Anirudh Ravichander


Spek :


Quality Check log :
Code:
foobar2000 2.1 / Dynamic Range Meter 1.1.1
log date: 2024-06-01 21:50:47

--------------------------------------------------------------------------------
Analyzed: Anirudh Ravichander & Shruthika Samudhrala / Indian 2 (Original Motion Picture Soundtrack) (1)
          Anirudh Ravichander, Abby V & Shruthika Samudhrala / Indian 2 (Original Motion Picture Soundtrack) (2)
          Anirudh Ravichander / Indian 2 (Original Motion Picture Soundtrack) (3-5)
          Suvi, Anirudh Ravichander & Aishwarya Suresh / Indian 2 (Original Motion Picture Soundtrack) (6)
--------------------------------------------------------------------------------

DR         Peak         RMS     Duration Track
--------------------------------------------------------------------------------
DR5       -0.20 dB    -6.97 dB      4:12 01-Paaraa
DR6       -0.18 dB    -8.03 dB      5:05 03-Neelorpam
DR5       -0.20 dB    -9.03 dB      2:07 04-ZagaZaga
DR5       -0.20 dB    -7.26 dB      3:37 05-Come Back Indian
DR4       -0.20 dB    -5.45 dB      3:54 06-Kadharalz
DR5       -0.20 dB    -6.68 dB      3:41 02-Calendar Song
--------------------------------------------------------------------------------

Number of tracks:  6
Official DR value: DR5

Samplerate:        96000 Hz
Channels:          2
Bits per sample:   24
Bitrate:           2932 kbps
Codec:             FLAC
================================================================================
~ Samperals.net x Desihires.com.