Hi Nanna (Telugu) [2023] (T-Series Music)

[Hi-Res] [24-Bit 48.0 kHz] Hi Nanna (Telugu) [2023] (T-Series Music) 2023

No permission to download
Hi Nanna (Telugu) [2023] (T-Series Music)



Album / Movie : Hi Nanna (Telugu) (Original Motion Picture Soundtrack) - EP [2022] (T-Series Music)
Music / Composer : Hesham Abdul Wahab
Year Released: 2023
Label: © 2023 T-Series Music/Super Cassettes Industries Private Limited.
Language: Telugu
Ripper Note: XCLUSiVE🔥. Enjoy AUTHENTiC___HiRES MaXX_QUALiTY 🔥. Only on DHR 🔥. Stay away from fakes 🤬. Get it for free ✌️☮️ PerfectRip 💯 F*ck ALAC :alien:

Tracklist :
1 - Gaaju Bomma - Hesham Abdul Wahab
2 - Samayama - Anurag Kulkarni & Sithara Krishnakumar
3 - Asalelaa - Chinmayi Sripada
4 - Ammaadi - Shakthisree Gopalan & Kaala Bhairava
5 - Enno Enno - Bhavana Isvi
6 - Adigaa - Karthik
7 - Idhe Idhe - Hesham Abdul Wahab
8 - Odiyamma - Dhruv Vikram, Shruti Haasan & Chinmayi Sripada
9 - Chedhu Nijam - Geetha Madhuri
10 - Needhe Needhe - Aavani Malhar

Spek :


Quality Check log :
Code:
foobar2000 2.0 / Dynamic Range Meter 1.1.1
log date: 2023-12-14 17:41:04

--------------------------------------------------------------------------------
Analyzed: Aavani Malhar / Hi Nanna - Telugu (1)
          Anurag Kulkarni & Sithara Krishnakumar / Hi Nanna - Telugu (2)
          Bhavana Isvi / Hi Nanna - Telugu (3)
          Chinmayi Sripada / Hi Nanna - Telugu (4)
          Dhruv Vikram, Shruti Haasan & Chinmayi Sripada / Hi Nanna - Telugu (5)
          Geetha Madhuri / Hi Nanna - Telugu (6)
          Hesham Abdul Wahab / Hi Nanna - Telugu (7-8)
          Karthik / Hi Nanna - Telugu (9)
          Shakthisree Gopalan & Kaala Bhairava / Hi Nanna - Telugu (10)
--------------------------------------------------------------------------------

DR         Peak         RMS     Duration Track
--------------------------------------------------------------------------------
DR5       -0.30 dB    -6.97 dB      3:15 10-Needhe Needhe
DR4       -0.30 dB    -6.13 dB      3:24 02-Samayama
DR7       -0.10 dB    -9.41 dB      1:05 05-Enno Enno
DR8       -0.10 dB    -9.70 dB      1:06 03-Asalelaa
DR6       -0.30 dB    -8.26 dB      3:15 08-Odiyamma
DR4       -0.47 dB    -6.94 dB      4:17 09-Chedhu Nijam
DR6       -0.30 dB    -7.98 dB      4:26 01-Gaaju Bomma
DR7       -0.30 dB   -10.73 dB      3:35 07-Idhe Idhe
DR8       -0.30 dB   -10.63 dB      3:30 06-Adigaa
DR6       -0.30 dB    -8.82 dB      3:39 04-Ammaadi
--------------------------------------------------------------------------------

Number of tracks:  10
Official DR value: DR6

Samplerate:        48000 Hz
Channels:          2
Bits per sample:   24
Bitrate:           1738 kbps
Codec:             FLAC
================================================================================
~Desihires.com