Daydream (by Faraz) (Hindi) [2024] (Sony Music)

[Hi-Res] [24-Bit 96.0 kHz] Daydream (by Faraz) (Hindi) [2024] (Sony Music) 2024

No permission to download
Daydream (by Faraz) (Hindi) [2024] (Sony Music)



Album / Movie : Daydream (by Faraz) - (Hindi) [2024] [Sony Music]
Music / Composer : Faraz
Year Released: 2024
Label: © 2024 Sony Music.
Language: Hindi
Ripper Note: Enjoy AUTHENTiC_HiRES 🔥

Tracklist :
1 - Gallan - Faraz
2 - Dangerous - Faraz
3 - Let It Go - Faraz
4 - Bawale Se - Faraz
5 - Nasha Hone Do - Faraz
6 - Kharab Kar Gayi - Faraz Feat. Abir

Spek :


Quality Check log :
Code:
foobar2000 2.1 / Dynamic Range Meter 1.1.1
log date: 2024-02-02 17:34:53

--------------------------------------------------------------------------------
Analyzed: Faraz Feat. Abir / Daydream (1)
          Faraz / Daydream (2-6)
--------------------------------------------------------------------------------

DR         Peak         RMS     Duration Track
--------------------------------------------------------------------------------
DR6       -0.14 dB    -8.66 dB      2:46 06-Kharab Kar Gayi
DR8       -0.10 dB    -8.93 dB      2:44 01-Gallan
DR7       -0.94 dB    -9.23 dB      2:27 02-Dangerous
DR9       -0.14 dB   -11.10 dB      2:24 03-Let It Go
DR8       -0.14 dB   -10.09 dB      2:33 04-Bawale Se
DR10      -0.14 dB   -11.25 dB      2:50 05-Nasha Hone Do
--------------------------------------------------------------------------------

Number of tracks:  6
Official DR value: DR8

Samplerate:        96000 Hz
Channels:          2
Bits per sample:   24
Bitrate:           2691 kbps
Codec:             FLAC
================================================================================
~Desihires.com
  • Like
Reactions: madhuv and Robert07