Crook (Hindi) [2010] (Sony Music) [1st Edition]

[Audio CD] Crook (Hindi) [2010] (Sony Music) [1st Edition] 2010

No permission to download
Crook (Hindi) [2010] (Sony Music) [1st Edition]



Album / Movie : Crook (Hindi) [2010] (Sony) [1st Edition]
Music / Composer : Pritam
Year Released: 2010
Label: © 2010 Sony Music.
Language: Hindi
Ripper Note: Enjoy AUTHENTiC___CDRip 🔥 Credits to the Source 🖖✌️(y)

Tracklist :
01 - Challa - Babbu Mann & Suzanne D'Mello
02 - Mere Bina - Nikhil D'Souza
03 - Kya - Neeraj Shridhar
04 - Tujhi Mein - KK
05 - Challa (Remix) - TigerStyle
06 - Tujhko Jo Paaya - Mohit Chauhan
07 - Tujhi Mein (Reprise) - KK
08 - Mere Bina (Unplugged) - KK

Spek :


Quality Check log :
Code:
foobar2000 2.1 / Dynamic Range Meter 1.1.1
log date: 2024-05-17 16:10:11

--------------------------------------------------------------------------------
Analyzed: Babbu Mann & Suzanne D'Mello / Crook (1)
          KK / Crook (2-4)
          Mohit Chauhan / Crook (5)
          Neeraj Shridhar / Crook (6)
          Nikhil D'Souza / Crook (7)
          TigerStyle / Crook (8)
--------------------------------------------------------------------------------

DR         Peak         RMS     Duration Track
--------------------------------------------------------------------------------
DR6        0.00 dB    -7.72 dB      3:47 01-Challa
DR6        0.00 dB    -6.98 dB      5:01 04-Tujhi Mein
DR6        0.00 dB    -7.31 dB      4:41 07-Tujhi Mein (Reprise)
DR6        0.00 dB    -7.85 dB      4:55 08-Mere Bina (Unplugged)
DR9        0.00 dB   -10.40 dB      3:05 06-Tujhko Jo Paaya
DR6        0.00 dB    -7.46 dB      3:50 03-Kya
DR6        0.00 dB    -7.64 dB      4:50 02-Mere Bina
DR7        0.00 dB    -7.91 dB      4:26 05-Challa (Remix)
--------------------------------------------------------------------------------

Number of tracks:  8
Official DR value: DR6

Samplerate:        44100 Hz
Channels:          2
Bits per sample:   16
Bitrate:           1411 kbps
Codec:             PCM
================================================================================
~ Samperals.net x Desihires.com