Connections - A. R. Rahman (Album) [2010] (Wrasse Records) [Europe Edition]

[Audio CD] Connections - A. R. Rahman (Album) [2010] (Wrasse Records) [Europe Edition] 2010

No permission to download
Connections - A. R. Rahman (Album) [2010] (Wrasse Records) [Europe Edition]



Album / Movie : Connections by A. R. Rahman
Music / Composer : Yuvan Shankar Raja
Year Released: 2010

Label: Wrasse Records
Language: Hindi & English
Ripper Note: ARR :cool: | Quality is šŸ”„

Tracklist :

1 - Jiya Se Jiya (Rockstar Version) - Karthik, A. R. Rahman, Raqueeb Aalam
2 - Jai Ho ! - Sukhvinder Singh, Tanvi Shah, Mahalaxmi Iyer and Vijay Prakash
3 - Khabili (Rang de basanti) - A. R. Rahman, Aslam, Nacim
4 - Meherbaan (Ada) - A. R. Rahman
5 - Dil Se Re (Dil se) - A R Rahman
6 - Ek Mohabbat 'Vote for taj' - A. R. Rahman, Karthik, Naresh Iyer
7 - Sajina (Couples retreat) - P. J. Morton
8 - Bombay theme (Bombay instrumental) - A R Rahman
9 - Pray For Me Brother - A. R. Rahman & Michael Mc Cleary Feat. Blazee
10 - Jiya Se Jiya (Club Mix) - A. R. Rahman remixed by DJ A-MYTH
11 - Jai Ho ! (You are my destiny) - A. R. Rahman, The Pussycat Dolls (Ron Fair & Nichole Scherzinger)
12 - Pray For Me Brother (Instrumental) - Instrumental version of the original song



Spek :

09. Pray For Me Brother.wav.png

Quality Check log :
Code:
foobar2000 1.6.6 / Dynamic Range Meter 1.1.1
log date: 2021-08-26 23:05:43

--------------------------------------------------------------------------------
Analyzed: A R Rahman / Connections - A. R. Rahman (1-2)
          A. R. Rahman & Michael Mc Cleary Feat. Blazee / Connections - A. R. Rahman (3)
          A. R. Rahman remixed by DJ A-MYTH / Connections - A. R. Rahman (4)
          A. R. Rahman, Aslam, Nacim / Connections - A. R. Rahman (5)
          A. R. Rahman, Karthik, Naresh Iyer / Connections - A. R. Rahman (6)
          A. R. Rahman, The Pussycat Dolls (Ron Fair & Nichole Scherzinger) / Connections - A. R. Rahman (7)
          A. R. Rahman / Connections - A. R. Rahman (8)
          Instrumental version of the original song / Connections - A. R. Rahman (9)
          Karthik, A. R. Rahman, Raqueeb Aalam / Connections - A. R. Rahman (10)
          P. J. Morton / Connections - A. R. Rahman (11)
          Sukhvinder Singh, Tanvi Shah, Mahalaxmi Iyer and Vijay Prakash / Connections - A. R. Rahman (12)
--------------------------------------------------------------------------------

DR         Peak         RMS     Duration Track
--------------------------------------------------------------------------------
DR7        0.00 dB    -8.88 dB      6:42 05-Dil Se Re (Dil se)
DR6        0.00 dB    -9.88 dB      5:17 08-Bombay theme (Bombay instrumental)
DR4        0.00 dB    -7.30 dB      5:07 09-Pray For Me Brother
DR6        0.00 dB    -7.75 dB      3:26 10-Jiya Se Jiya (Club Mix)
DR6        0.00 dB    -7.97 dB      6:19 03-Khabili (Rang de basanti)
DR6        0.00 dB    -7.79 dB      4:22 06-Ek Mohabbat 'Vote for taj'
DR5        0.00 dB    -6.31 dB      3:44 11-Jai Ho ! (You are my destiny)
DR5        0.00 dB    -6.59 dB      3:48 04-Meherbaan (Ada)
DR5        0.00 dB    -7.16 dB      4:38 12-Pray For Me Brother (Instrumental)
DR6        0.00 dB    -7.21 dB      3:26 01-Jiya Se Jiya (Rockstar Version)
DR5        0.00 dB    -6.37 dB      3:41 07-Sajina (Couples retreat)
DR5        0.00 dB    -6.56 dB      5:20 02-Jai Ho !
--------------------------------------------------------------------------------

Number of tracks:  12
Official DR value: DR6

Samplerate:        44100 Hz
Channels:          2
Bits per sample:   16
Bitrate:           1411 kbps
Codec:             PCM
================================================================================