Captain Miller (Tamil) [2024] (SaReGaMa)

[CD Quality] [FLAC] Captain Miller (Tamil) [2024] (SaReGaMa) 2024

No permission to download
Captain Miller (Tamil) [2024] (SaReGaMa)



Album / Movie : Captain Miller [Tamil] (Original Motion Picture Soundtrack) - EP
Music / Composer : G.V. Prakash Kumar
Year Released: 2024
Label: © 2024 SaReGaMa.
Language: Tamil
Ripper Note: G.V. Prakash Kumar Musical 🔥 Enjoy AUTHENTiC_CD QUALiTY 🔥 Updated to Final version 🔥

Tracklist :
1 - Killer Killer - Dhanush & Kaber Vasuki
2 - Un Oliyile - Sean Roldan & Kaber Vasuki
3 - Koranaaru - Deva, Santosh Hariharan, Alexander Babu & Umadevi
4 - Kombari Vettapuli - Dhee & Vivek
5 - Rise of Miller - Arunraja Kamaraj


Spek :


Quality Check log :
Code:
foobar2000 2.1 / Dynamic Range Meter 1.1.1
log date: 2024-05-10 18:23:18

--------------------------------------------------------------------------------
Analyzed: Arunraja Kamaraj / Captain Miller (Original Motion Picture Soundtrack) (1)
          Deva, Santosh Hariharan, Alexander Babu & Umadevi / Captain Miller (Original Motion Picture Soundtrack) (2)
          Dhanush & Kaber Vasuki / Captain Miller (Original Motion Picture Soundtrack) (3)
          Dhee & Vivek / Captain Miller (Original Motion Picture Soundtrack) (4)
          Sean Roldan & Kaber Vasuki / Captain Miller (Original Motion Picture Soundtrack) (5)
--------------------------------------------------------------------------------

DR         Peak         RMS     Duration Track
--------------------------------------------------------------------------------
DR10      -0.17 dB   -11.81 dB      3:06 05-Rise of Miller
DR10       0.00 dB   -12.31 dB      3:22 03-Koranaaru
DR11       0.00 dB   -13.63 dB      3:40 01-Killer Killer
DR11       0.00 dB   -12.13 dB      3:16 04-Kombari Vettapuli
DR10      -0.33 dB   -12.88 dB      3:36 02-Un Oliyile
--------------------------------------------------------------------------------

Number of tracks:  5
Official DR value: DR10

Samplerate:        44100 Hz
Channels:          2
Bits per sample:   16
Bitrate:           824 kbps
Codec:             FLAC
================================================================================
~ Samperals.net x Desihires.com.

Latest updates

  1. Captain Miller (Tamil) [2024] (SaReGaMa)

    Updated to final version.