One Love - A. R. Rahman (Album) [2007] (EMI) [1st Editon]

[Audio CD] One Love - A. R. Rahman (Album) [2007] (EMI) [1st Editon] 2007

No permission to download
One Love - A. R. Rahman (Album) [2007] (EMI) [1st Editon]



Album / Movie : One Love - A. R. Rahman
Music / Composer : A. R. Rahman
Year Released: 2007

Label: EMI Music
Language: Tamil
Ripper Note: ARR 🔥

Tracklist :

1 - One Love - Ek Mohabbat (Hindi) - A R Rahman, Karthik & Naresh Iyer
2 - One Love - Kadhal Ondrallava (Tamil) - A R Rahman, Karthik & Naresh Iyer
3 - One Love - Pranayam Onnu Allo (Malayalam) - A R Rahman, Karthik & Naresh Iyer
4 - One Love - Prema Okaatega (Telugu) - A R Rahman, Karthik & Naresh Iyer
5 - One Love - Premavu Illi Onde (Kannada) - A R Rahman, Karthik & Naresh Iyer
6 - One Love - Bhalobasha Ek Hoye (Bengali) - A R Rahman, Karthik & Naresh Iyer



Spek :

01. One Love - Kadhal Ondrallava (Tamil).wav.png

Quality Check log :
Code:
foobar2000 1.6.6 / Dynamic Range Meter 1.1.1
log date: 2021-08-21 15:15:29

--------------------------------------------------------------------------------
Analyzed: A R Rahman, Karthik & Naresh Iyer / A R Rahman - One Love
--------------------------------------------------------------------------------

DR         Peak         RMS     Duration Track
--------------------------------------------------------------------------------
DR9       -0.51 dB   -11.13 dB      4:22 01-One Love - Ek Mohabbat (Hindi)
DR9       -0.10 dB   -11.12 dB      4:23 02-One Love - Kadhal Ondrallava (Tamil)
DR9       -0.10 dB   -10.79 dB      4:23 03-One Love - Pranayam Onnu Allo (Malayalam)
DR9       -0.10 dB   -11.10 dB      4:22 04-One Love - Prema Okaatega (Telugu)
DR9       -0.10 dB   -11.00 dB      4:23 05-One Love - Premavu Illi Onde (Kannada)
DR9       -0.10 dB   -11.24 dB      4:20 06-One Love - Bhalobasha Ek Hoye (Bengali)
--------------------------------------------------------------------------------

Number of tracks:  6
Official DR value: DR9

Samplerate:        44100 Hz
Channels:          2
Bits per sample:   16
Bitrate:           1411 kbps
Codec:             PCM
================================================================================