Karataka Damanaka (Kannada) [2024] (Aananda Audio)

[CD Quality] [FLAC] Karataka Damanaka (Kannada) [2024] (Aananda Audio) 2024

No permission to download
Karataka Damanaka (Kannada) [2024] (Aananda Audio)



Album / Movie : Karataka Damanaka (Kannada) [2024] (Aananda Audio Video)
Music / Composer : V.Harikrishna
Year Released: 2024
Label: © 2024 Aananda Audio Video.
Language: Kannada
Ripper Note: V.Harikrishna 🔥 Enjoy AUTHENTiC__UT-CDQ 🔥

Tracklist :
1 - Karataka Damanaka (Title Track) - Shankar Mahadevan
2 - Deega Digari - RAJESH KRISHNAN & Upendra
3 - Meetadene Veene - V.Harikrishna
4 - Hithalaka Karibyada Maava - Shruthi Prahalad & Malu Nipanal
5 - Manuja Nindyava Ooru - Vijay Prakash
6 - Baalu Badenekayi - V.Harikrishna
7 - Karataka Damanaka (Theme Music) - V Harikrishna
8 - Karataka Damanaka (Theme Music 2) - Venkataroa Harikrishna


Spek :


Quality Check log :
Code:
foobar2000 2.1 / Dynamic Range Meter 1.1.1
log date: 2024-06-21 11:15:12

--------------------------------------------------------------------------------
Analyzed: RAJESH KRISHNAN & Upendra / Karataka Damanaka (Original Motion Picture Soundtrack) (1)
          Shankar Mahadevan / Karataka Damanaka (Original Motion Picture Soundtrack) (2)
          Shruthi Prahalad & Malu Nipanal / Karataka Damanaka (Original Motion Picture Soundtrack) (3)
          V Harikrishna / Karataka Damanaka (Original Motion Picture Soundtrack) (4)
          V.Harikrishna / Karataka Damanaka (Original Motion Picture Soundtrack) (5-6)
          Venkataroa Harikrishna / Karataka Damanaka (Original Motion Picture Soundtrack) (7)
          Vijay Prakash / Karataka Damanaka (Original Motion Picture Soundtrack) (8)
--------------------------------------------------------------------------------

DR         Peak         RMS     Duration Track
--------------------------------------------------------------------------------
DR6        0.00 dB    -7.65 dB      3:55 02-Deega Digari
DR6        0.00 dB    -7.84 dB      4:23 01-Karataka Damanaka (Title Track)
DR6        0.00 dB    -7.95 dB      3:26 04-Hithalaka Karibyada Maava
DR7       -0.60 dB   -10.30 dB      0:46 07-Karataka Damanaka (Theme Music)
DR6        0.00 dB    -7.98 dB      3:13 03-Meetadene Veene
DR7        0.00 dB    -9.21 dB      3:43 06-Baalu Badenekayi
DR5        0.00 dB    -8.38 dB      1:49 08-Karataka Damanaka (Theme Music 2)
DR7       -0.37 dB    -9.14 dB      2:54 05-Manuja Nindyava Ooru
--------------------------------------------------------------------------------

Number of tracks:  8
Official DR value: DR6

Samplerate:        44100 Hz
Channels:          2
Bits per sample:   16
Bitrate:           873 kbps
Codec:             FLAC
================================================================================
~ Samperals.net x Desihires.com.