Dil Toh Baccha Hai Ji (Hindi) [2010] (T-Series) [1st Edition]

[Audio CD] Dil Toh Baccha Hai Ji (Hindi) [2010] (T-Series) [1st Edition] 2010

No permission to download
Dil Toh Baccha Hai Ji (Hindi) [2010] (T-Series) [1st Edition]



Album / Movie : Dil Toh Baccha Hai Ji (Hindi) [2010] (T-Series) [1st Edition]
Music / Composer : Pritam
Year Released: 2010
Label: © 1999 T-Series Music.
Language: Hindi
Ripper Note: Pritam 🔥 Enjoy AUTHENTiC___CDRip 🔥 Credits to the Source 🖖✌️(y)

Tracklist :
01 - Abhi Kuch Dino Se - Mohit Chauhan
02 - Tere Bin - Sonu Nigam
03 - Yeh Dil Hai Nakhrewala - Shefali Alvares
04 - Jadugari - Kunal Ganjawala
05 - Beshuba - Kunal Ganjawala & Antara Mitra
06 - Tere Bin (Reprise) - Naresh Iyer
07 - Yeh Dil Hai Nakhrewala (Film Version) - Antara Mitra
08 - Tere Bin (Remix) - Sonu Nigam

Spek :


Quality Check log :
Code:
foobar2010 2.1 / Dynamic Range Meter 1.1.1
log date: 2024-05-17 16:29:52

--------------------------------------------------------------------------------
Analyzed: Antara Mitra / Dil Toh Baccha Hai Ji (1)
          Kunal Ganjawala & Antara Mitra / Dil Toh Baccha Hai Ji (2)
          Kunal Ganjawala / Dil Toh Baccha Hai Ji (3)
          Mohit Chauhan / Dil Toh Baccha Hai Ji (4)
          Naresh Iyer / Dil Toh Baccha Hai Ji (5)
          Shefali Alvares / Dil Toh Baccha Hai Ji (6)
          Sonu Nigam / Dil Toh Baccha Hai Ji (7-8)
--------------------------------------------------------------------------------

DR         Peak         RMS     Duration Track
--------------------------------------------------------------------------------
DR7        0.00 dB    -8.63 dB      4:33 07-Yeh Dil Hai Nakhrewala (Film Version)
DR6        0.00 dB    -7.87 dB      4:33 05-Beshuba
DR8        0.00 dB    -8.77 dB      4:57 04-Jadugari
DR7        0.00 dB    -8.36 dB      4:48 01-Abhi Kuch Dino Se
DR6        0.00 dB    -7.41 dB      5:17 06-Tere Bin (Reprise)
DR7        0.00 dB    -7.79 dB      4:19 03-Yeh Dil Hai Nakhrewala
DR6        0.00 dB    -7.23 dB      5:18 02-Tere Bin
DR6        0.00 dB    -6.72 dB      5:27 08-Tere Bin (Remix)
--------------------------------------------------------------------------------

Number of tracks:  8
Official DR value: DR7

Samplerate:        44100 Hz
Channels:          2
Bits per sample:   16
Bitrate:           1411 kbps
Codec:             PCM
================================================================================
~ Samperals.net x Desihires.com