Chithini (Malayalam) [2024] (East Coast)

[Hi-Res] [24-Bit 48.0 kHz] Chithini (Malayalam) [2024] (East Coast) 2024

No permission to download
Chithini (Malayalam) [2024] (East Coast)



Album / Movie : Chithini [2024] Malayalam Album (Original Motion Picture Soundtrack) - EP (Malayalam)
Composer : Ranjin Raj
Year Released: 2024
Label: © 2024 East Coast Company.
Language: Malayalam
Ripper Note: Ranjin Raj Musical 🔥 Enjoy AUTHENTiC__UNT0UCHED_CDQ 🔥

Tracklist :
1 - Aaru Nee - K. S. Harisankar, Ranjin Raj & East Coast Vijayan
2 - Njanum Neeyum - Sanah Moidutty, Kapil Kapilan, Ranjin Raj & East Coast Vijayan
3 - Shyla Nandini - Sathya Prakash, Santhosh Varma & Ranjin Raj
4 - Le Le Le - Ranjin Raj, K. S. Anavadya, Suresh Poomala & Subhash Krishna
5 - Airana Dhurmadha - Traditional, Madhu Balakrishanan & Ranjin Raj
6 - Parithranaya - Traditional, Madhu Balakrishanan & Ranjin Raj
7 - Agajaanana - Traditional, Madhu Balakrishanan & Ranjin Raj
8 - Ohm Namo Bhagavathy - Traditional, Madhu Balakrishanan & Ranjin Raj

Spek :


Quality Check log :
Code:
foobar2000 2.1 / Dynamic Range Meter 1.1.1
log date: 2024-06-19 13:28:23

--------------------------------------------------------------------------------
Analyzed: K. S. Harisankar, Ranjin Raj & East Coast Vijayan / Chithini (Original Motion Picture Soundtrack) (1)
          Ranjin Raj, K. S. Anavadya, Suresh Poomala & Subhash Krishna / Chithini (Original Motion Picture Soundtrack) (2)
          Sanah Moidutty, Kapil Kapilan, Ranjin Raj & East Coast Vijayan / Chithini (Original Motion Picture Soundtrack) (3)
          Sathya Prakash, Santhosh Varma & Ranjin Raj / Chithini (Original Motion Picture Soundtrack) (4)
          Traditional, Madhu Balakrishanan & Ranjin Raj / Chithini (Original Motion Picture Soundtrack) (5-8)
--------------------------------------------------------------------------------

DR         Peak         RMS     Duration Track
--------------------------------------------------------------------------------
DR8       -0.11 dB   -10.29 dB      4:11 01-Aaru Nee
DR5       -0.29 dB    -7.38 dB      4:11 04-Le Le Le
DR6       -0.42 dB    -7.96 dB      3:56 02-Njanum Neeyum
DR8       -0.11 dB   -10.82 dB      4:06 03-Shyla Nandini
DR7       -0.21 dB    -9.35 dB      1:43 05-Airana Dhurmadha
DR7       -0.10 dB   -10.93 dB      1:11 06-Parithranaya
DR8       -0.20 dB   -10.35 dB      1:56 07-Agajaanana
DR8       -0.21 dB   -10.29 dB      1:11 08-Ohm Namo Bhagavathy
--------------------------------------------------------------------------------

Number of tracks:  8
Official DR value: DR7

Samplerate:        48000 Hz
Channels:          2
Bits per sample:   24
Bitrate:           1648 kbps
Codec:             FLAC
================================================================================
~ Samperals.net x Desihires.com