Bharateeyudu 2 (Telugu) [2024] (Sony Music)

[Hi-Res] [24-Bit 96.0 kHz] Bharateeyudu 2 (Telugu) [2024] (Sony Music) 2024

No permission to download
Bharateeyudu 2 (Telugu) [2024] (Sony Music)



Album / Movie : Bharateeyudu 2 (Telugu) [2024] (Sony Music)
Music / Composer : Anirudh Ravichander
Year Released: 2024
Label: © 2024 Sony Music.
Language: Telugu
Ripper Note: Anirudh Ravichander x Shankar 🔥 Enjoy AUTHENTiC__UNT0UCHED_HiRES 🔥

Tracklist :
1 - Souraa - Anirudh Ravichander, Ritesh G Rao & Shruthika Samudhrala
2 - Calendar Song - Anirudh Ravichander & Sravana Bhargavi
3 - Chengaluva - Anirudh Ravichander, Abby V & Shruthika Samudhrala
4 - ZagaZaga - Anirudh Ravichander
5 - Come Back Indian - Anirudh Ravichander & Sri Krishna
6 - Thatha Vasthaade - Anirudh Ravichander & Arun Kaundinya


Spek :


Quality Check log :
Code:
foobar2000 1.6.4 / Dynamic Range Meter 1.1.1
log date: 2024-06-08 11:39:59

--------------------------------------------------------------------------------
Analyzed: Anirudh Ravichander & Arun Kaundinya / Bharateeyudu 2 (Original Motion Picture Soundtrack) (1)
          Anirudh Ravichander & Sravana Bhargavi / Bharateeyudu 2 (Original Motion Picture Soundtrack) (2)
          Anirudh Ravichander & Sri Krishna / Bharateeyudu 2 (Original Motion Picture Soundtrack) (3)
          Anirudh Ravichander, Abby V & Shruthika Samudhrala / Bharateeyudu 2 (Original Motion Picture Soundtrack) (4)
          Anirudh Ravichander, Ritesh G Rao & Shruthika Samudhrala / Bharateeyudu 2 (Original Motion Picture Soundtrack) (5)
          Anirudh Ravichander / Bharateeyudu 2 (Original Motion Picture Soundtrack) (6)
--------------------------------------------------------------------------------

DR         Peak         RMS     Duration Track
--------------------------------------------------------------------------------
DR4       -0.20 dB    -5.60 dB      3:54 06-Thatha Vasthaade
DR5       -0.20 dB    -6.70 dB      3:41 02-Calendar Song
DR5       -0.20 dB    -7.06 dB      3:37 05-Come Back Indian
DR6        0.00 dB    -7.91 dB      5:05 03-Chengaluva
DR5       -0.20 dB    -7.00 dB      4:12 01-Souraa
DR5       -0.20 dB    -9.03 dB      2:07 04-ZagaZaga
--------------------------------------------------------------------------------

Number of tracks:  6
Official DR value: DR5

Samplerate:        96000 Hz
Channels:          2
Bits per sample:   24
Bitrate:           2904 kbps
Codec:             FLAC
================================================================================
~ Samperals.net x Desihires.com.